Стол заказов
» » Древние пришельцы (11 сезон: 1 серия из 15) (2016) HDTVRip 720p

Древние пришельцы (11 сезон: 1 серия из 15) (2016) HDTVRip 720p скачать торрент

Чтобы скачать Древние пришельцы (11 сезон: 1 серия из 15) (2016) HDTVRip 720p через торрент в хорошем качестве , мы рекомендуем ознакомиться с предоставленным материалом, и только после этого жмите кнопку "скачать торрент".

Древние пришельцы (11 сезон: 1 серия из 15) (2016) HDTVRip 720p Название: Древние пришельцы
Оригинальное название: Ancient Aliens
Жанр: Документальный, научно-популярный, уфология
Выпущено: США, Prometheus Entertainment, A&E Television Networks, LLC., History Channel
Режиссер: Кевин Барнс, Дэвид Сильвер
В ролях: Уильям Джей. Бернс, Линда Молтон Хоу, Роберт Клотуорти, Джордж Нури, Джонатан Янг, Луис Навия, Бэрри Доунинг, Эрих фон Дэникен, Майкл Кремо, Дэвид Чайлдресс Краткое описание: Возможно ли, что разумные формы жизни посетили Землю тысячи лет назад, принеся с собой технологии кардинально повлиявшие на ход истории и развития человечества? Теория "древних пришельцев", опубликованная в 1968 году в бестселлере Эриха фон Деникена "Колесницы богов", пошатнула представления людей об общеизвестном прогрессе человечества. Древние пещерные рисунки странных существ, остатки взлетно-посадочных полос в Перу, индийские тексты, описывающие "летающие машины богов"... вот лишь некоторые необычные археологические артефакты на которые ссылается Деникен в качестве доказательств того, что "древние астронавты" были хорошо известны нашим предкам.

Видео: MPEG-4 AVC, ~ 3000 Кбит/с, 1280x720
Аудио: AC3, 2 ch, 192 Кбит/c
Продолжительность: 1 x ~ 00:44:00
Перевод: Любительский одноголосый (NEON Studio)
[spoiler=Содержание:]Серия 1. Пирамиды Антарктиды (Pyramids of Antarctica)[/spoiler]



Древние пришельцы (11 сезон: 1 серия из 15) (2016) HDTVRip 720p
Древние пришельцы (11 сезон: 1 серия из 15) (2016) HDTVRip 720p
Древние пришельцы (11 сезон: 1 серия из 15) (2016) HDTVRip 720p




Format : Matroska
Format version : Version 4 / Version 2
File size : 793 MiB
Duration : 42mn 12s
Overall bit rate : 2 629 Kbps
Encoded date : UTC 2017-01-15 12:05:05
Writing application : mkvmerge v6.0.0 ('Coming Up For Air') built on Jan 20 2013 09:52:00
Writing library : libebml v1.3.0 + libmatroska v1.4.0

Video
ID : 1
Format : AVC
Format/Info : Advanced Video Codec
Format profile : Main@L3.1
Format settings, CABAC : Yes
Format settings, ReFrames : 4 frames
Codec ID : V_MPEG4/ISO/AVC
Duration : 42mn 12s
Bit rate : 3000 Kbps
Width : 1 280 pixels
Height : 720 pixels
Display aspect ratio : 16:9
Frame rate mode : Constant
Frame rate : 25.000 fps
Color space : YUV
Chroma subsampling : 4:2:0
Bit depth : 8 bits
Scan type : Progressive
Bits/(Pixel*Frame) : 0.103
Stream size : 720 MiB (91%)
Writing library : x264 core 146
Encoding settings : cabac=1 / ref=1 / deblock=1:0:0 / analyse=0x1:0x1 / me=dia / subme=1 / psy=1 / psy_rd=1.00:0.00 / mixed_ref=0 / me_range=16 / chroma_me=1 / trellis=0 / 8x8dct=0 / cqm=0 / deadzone=21,11 / fast_pskip=1 / chroma_qp_offset=0 / threads=3 / lookahead_threads=1 / sliced_threads=0 / nr=0 / decimate=1 / interlaced=0 / bluray_compat=0 / constrained_intra=0 / bframes=3 / b_pyramid=2 / b_adapt=1 / b_bias=0 / direct=1 / weightb=1 / open_gop=0 / weightp=1 / keyint=250 / keyint_min=25 / scenecut=40 / intra_refresh=0 / rc=crf / mbtree=0 / crf=23.0 / qcomp=0.60 / qpmin=0 / qpmax=69 / qpstep=4 / ip_ratio=1.40 / pb_ratio=1.30 / aq=1:1.00
Language : English
Default : Yes
Forced : No

Audio
ID : 2
Format : AC-3
Format/Info : Audio Coding 3
Mode extension : CM (complete main)
Format settings, Endianness : Big
Codec ID : A_AC3
Duration : 42mn 12s
Bit rate mode : Constant
Bit rate : 192 Kbps
Channel(s) : 2 channels
Channel positions : Front: L R
Sampling rate : 48.0 KHz
Frame rate : 31.250 fps (1536 spf)
Compression mode : Lossy
Delay relative to video : -5ms
Stream size : 58.0 MiB (7%)
Language : English
Default : Yes
Forced : No[/spoiler]

Скачать Древние пришельцы (11 сезон: 1 серия из 15) (2016) HDTVRip 720p через торрент


_ancient-aliens_1.torrent [15.91 Kb] (cкачиваний: 0)

Вирусов нет!Вирусов нет!

Прокомментировать
  • bowtiesmilelaughingblushsmileyrelaxedsmirk
    heart_eyeskissing_heartkissing_closed_eyesflushedrelievedsatisfiedgrin
    winkstuck_out_tongue_winking_eyestuck_out_tongue_closed_eyesgrinningkissingstuck_out_tonguesleeping
    worriedfrowninganguishedopen_mouthgrimacingconfusedhushed
    expressionlessunamusedsweat_smilesweatdisappointed_relievedwearypensive
    disappointedconfoundedfearfulcold_sweatperseverecrysob
    joyastonishedscreamtired_faceangryragetriumph
    sleepyyummasksunglassesdizzy_faceimpsmiling_imp
    neutral_faceno_mouthinnocent
Введите код с картинки:*
Кликните на изображение чтобы обновить код, если он неразборчив